Lossless Discography

Read More. HTTP download also available at fast speeds. Shop for Vinyl, CDs and more from The Cookies at the Discogs Marketplace. Discography: Singles. FLAC 16 bit / Electronic / Club / Soul / Funk / RnB / Discography All music The Gap Band Quality: FLAC 16 bit / 44. Hardline is a band created by brothers Johnny Gioeli and Joey Gioeli, who had previously played in the bands Killerhit and Brunette. Metallica - Discography (1983 - 2013) EAC Rip | 347xCD + 8xDVD | FLAC Image + Cue + Log | Full Scans Included Total Size: 151. Frank Wes, Fred Wesley, Guru, Larry Goldings, Maceo Parker, Melvin Parker, Pee. Project Activity. Lossless Rock Album and Discography. They play a style of music they call "Texican Rock n' Roll," combining elements of rock and roll, Texas blues, brown-eyed soul, country, and Tejano. Leon Russell Discography Flac. 2 GB 2006 - The Only Constant 2007 - The World is Getting Smaller 2008 - Bring Us The Bright 2010 - Tell Your Friends 2012 - groundUP 2013 - Amkeni [Bukuru Celestin & Snarky Puppy] 2013 - Family Dinner Volume 1 2014 - We Like It Here 2015 - Live in Concert at La Cigale. Hi-Res / Soundtrack / OST / Score. With Your Kiss 06. Looking for the Lossless Discography. T 1976 - Dirty Deeds Done Dirt Cheap. sk, my-files,. Metallica - Discography (1983 - 2013) EAC Rip | 347xCD + 8xDVD | FLAC Image + Cue + Log | Full Scans Included Total Size: 151. 03 – Suspicious Minds. [PEDIDO] CC Catch Discography [Torrent] Albums, Compilations & Singles 1986 - CATCH THE CATCH 1986 - WELCOME TO THE HEARTBREAK HOTEL 1987 - LIKE A HURRICANE 1988 Dani König ‎- Disco 3000 (CDM)(1998). Dimmu Borgir Discography (1st press), FLAC (image+. FLAC stands for Free Lossless Audio Codec, an audio format similar to MP3, but lossless, meaning that audio is compressed in FLAC without any loss in quality. Top Lossless - Music torrents 25 from 10000. Is This Love 04. 72 MB Throbbing Gristle ( Lossless Discography ) [ FLAC ] File Size : 8. Format: FLAC (image +. Chicago - Discography - Lossless According to Billboard chart statistics, Chicago is second only to the Beach Boys as the most successful American rock band of all time, in terms of both albums and singles. com find submissions from "example. Scorpions - Discography (1972 - 2015) (Lossless) ( Hard Rock) - Download for free via torrent - Metal Tracker. Bob James Discography LOSSLESS 19622011. Мессенджер PrivalSystems, Prival. Here at Allflac. 1991 Put Me in Your Mix 11 Sho' You Right (Remix). Download Survivor - Discography [Japanese Pervopressy, 10 Albums] (Lossless, 1979-2009) for free in FLAC [tracks+. Browse and download Music absolutely for free. We have 78 Discography-FLAC-Lossless Music torrents for you!. Can't write --replay-gain due to ReadOnly flacs. ag Donny Hathaway - Discography (1970-2010) [FLAC] [DJ] torrent - Lossless torrents - Music torrents - ExtraTorrent. cue, log Bitrate: lossless Sample Rate: 16 Bit/44. The album is actually referred as a diss to Juvenile after he left Cash Money earlier in the year. On A Perfect Day 02. com, yandex or rusfolder. Megadeth - Discography (1985 - 2016) EAC Rip | 265xCD + 5xDVD | FLAC Tracks & Image + Cue + Log | Full Scans Included Total Size: 110. All music Various Artists. Don't forget to mention that an ALAC file converted on the fly (as when listening to the file via iTunes) with no loss in sound quality, i. 04 I Wanna Lay Down with You Baby. If after 21 working days your item still hasn't arrived please contact us with your name and address - [email protected] FLAC stands for Free Lossless Audio Codec, an audio format similar to MP3, but lossless, meaning that audio is compressed in FLAC without any loss in quality. 72 MB Throbbing Gristle ( Lossless Discography ) [ FLAC ] File Size : 8. 2 KB 1985 - The Rodgers & Heart Songbook FLAC 01 - My Funny Valentine. M Pink Floyd Lossless Discography. We only provide meta information files for the ROIOs. 19 Metallica discography. EBM / Electro Industrial Gothic Darkwave. They are mainly known for their success in the mid-1980s and their jazz, Latin-flavoured music. 11 – Eternal Flame. Discography; CD-Rip; May 4, 2020. Teleport-X – Just Want to Know (Lio Q & Nicolas Leonelli Dub Mix) [Deepwibe Underground]. Dick Dale's first album was Surfer's Choice, with the Del-Tones. Girls with Guitars: Live. Albums Singles & EPs All. 3 years ago. ARTIST: Free ALBUM / TITLE: Discography RELEASE YEAR / DATE: 1968-2018 COUNTRY: United Kingdom STYLE: Blues Rock, Hard Rock, Clas BLACK SABBATH - THE ULTIMATE COLLECTION (REMASTERED) (LOSSLESS, HI-RES 2017). FLAC 16 bit / Pop / Electronic / Club / Discography 21-02-2020, 10:56 1 004 aleXs All albums Depeche Mode Quality: FLAC 16 bit / 44. This is similar to how Zip works, except with FLAC you will get much better compression because it is designed specifically for HD audio. We only provide meta information files for the ROIOs. isidroco created ticket #477. Download Cinderella - Discography (1986-2017) Lossless or any other file from Music category. 2 GB 2006 - The Only Constant 2007 - The World is Getting Smaller 2008 - Bring Us The Bright 2010 - Tell Your Friends 2012 - groundUP 2013 - Amkeni [Bukuru Celestin & Snarky Puppy] 2013 - Family Dinner Volume 1 2014 - We Like It Here 2015 - Live in Concert at La Cigale. Jackson-Discography-LOSSLESS-RiPMiCHAEL\Michael Jackson - Stranger In Moscow\02 - Michael Jackson - Stranger In Moscow (Tee's In-House Club Mix). June 14, 2018. ZIP and RAR arhcives download free. Steve Oliver - Discography (lossless, 1999-2018) ARTIST: Steve Oliver ALBUM TITLE: Discography RELEASE YEAR DATE: 1999-2018 COUNTRY: United States STYLE: Smooth Jazz. Passing your PRINCE2 Examinations Book 2009 Edition. FLAC 16 bit / Rock / Collection Best Hits / Discography All music Pink Floyd Quality: FLAC 16 bit / 44. Tags: Dire Straits Dire Straits - Discography [Remastered] 1988-2000 lossless discography flac lossless remastered rock Previous : Ronnie James Dio (Dio) - Complete Discography [1983-2011] Next : David Guetta - Full Discography: Albums, Comilations, Singles (2002-2012). Progressive Rock. If you appreciate the work we do consider donating to us on Patreon. Norah Jones - The Fall - Japan. Music DL blog download new albums in FLAC Lossless from Oboom, Rapidgator and Uploaded!. 1 Surround Sound, Memory Foam Ear Pads, Durable Aluminum Frame, Detachable Microphone, Works with PC, PS4, Xbox One - Red. Helloween – Discography (1985 – 2015) EAC Rip | 98xCD + 3xDVD | FLAC/WavPack Image + Cue + Log | Full Scans Included Total Size: 59. March 21, 2018 Bob James Discography [LOSSLESS] (1962-2011) - DOWNLOAD. Chicago - Discography - Lossless According to Billboard chart statistics, Chicago is second only to the Beach Boys as the most successful American rock band of all time, in terms of both albums and singles. 1] 2 -- 1997 - Jay-Z - In My Lifetime, Vol. Title Of Album: Discography Year Of Release: 2005-2016 Label: Polydor, Columbia Country: Patrick Kelly Genre: New Age, Relax, Meditation Quality: APE (*tracks) Bitrate: Lossless Time: 5 albums Full Size: 1,87 Gb. The 7th album of Sunchild 'Messages From Afar' contains 8 songs that are very melodic packed well and with excellent musical ability especially 'Victory Voyager' the 20 minute playing epic on the album. Wherever You Stand 09. This contrasts with lossy audio formats such as AAC, MP3, and WMA, which compress audio using algorithms that discard data. 1 thru 6 - BWV 812 & 813, BWV 814 - 817 - Wolfgang Rubsam - 2 CD-. HTTP download also available at fast speeds. Dan's mother was a. cue), Lossless. Afraid of Sunlight was the band's eighth studio album and their final release on EMI. His father, Joe Jackson (no relation to Joe Jackson, also a musician), had been a guitarist, but was forced to give up his musical ambitions following his marriage to Michael's mother. Anderson Bruford Wakeman Howe) - Studio Discography (Lossless, 1969-2019) Progressive Rock Art rock Psychedelic Rock Joe Satriani - Shapeshifting (2020). Qobuz is both a music streaming service and a download store. Paul Kalkbrenner (born 11 June 1977) is a German live act, producer of electronic music, and actor from Berlin. Свежие релизы каждый день. The Police - Remastered Studio Discography 1978-1983. 2 GB 2006 - The Only Constant 2007 - The World is Getting Smaller 2008 - Bring Us The Bright 2010 - Tell Your Friends 2012 - groundUP 2013 - Amkeni [Bukuru Celestin & Snarky Puppy] 2013 - Family Dinner Volume 1 2014 - We Like It Here 2015 - Live in Concert at La Cigale. Frank Wes, Fred Wesley, Guru, Larry Goldings, Maceo Parker, Melvin Parker, Pee. Genre : Psychedelic Rock Release Date : 2020 Format : Flac (tracks+. Browse All categories - Anime - Apps - Books - Documentaries - Games - Movies - Music - Other - TV - XXX. (sometimes stylized in lower-case letters, originally called Social Justice) is an American rap metal band from Los Angeles, California. На сайте можно скачать Rock музыку альбомами, бесплатно и по прямым ссылкам в lossless или MP3. Имя файла L:\The Rasmus - Discography [Lossless]\01 - Albums\2001 - Into (Special Edition) [0151972ERE]\03. Download the Toxikull - Discography (2016 - 2019) (Lossless) Torrent or choose other Toxikull - Discography (2016 - 2019) (Lossless) torrent downloads. (Dub Techno, Ambient, Deep Techno, Downtempo) Thomas Carmody (Soundarium) - Discography - 2015-2017, FLAC (tracks), lossless. Read Full Biography. for thin lizzy - classic album selection 1974-1979 (6c taste - discography (lossless, 1969-1993) slade - vinil collection (lossless, hi res 1970-19 rainbow - collection (lossless, 1975-1983). Get unlimited access to over 60 million songs in HD and millions of songs in Ultra HD. M Pink Floyd Lossless Discography. flac Extracted successfully Conclusion: this track is CDDA with probability 100% Tempfile successfully deleted. Madonna - 13 Studio Albums + Greatest Hits Albums [LOSSLESS] Discography Februari 28, 2018 Album , Discography , Madonna Download Individually ===== Studio Albums ===== 1983 - Madonna : Released : July 27, 1983 Quality : iTunes Plus AAC M4A. Nowadays, the process of audio mastering sometimes upconverts, upsamples and upscales songs, resulting in CDs and so-called "lossless" tracks that are in fact. December 2010, 9:13 T. ALAC equals WAV but FLAC does not equal WAV. [torrent] la bouche - discography (lossless, 1994-2007) download. tháng mười hai 2014 (643) tháng một 2015 (549) tháng hai 2015 (254) tháng ba 2015 (349) tháng tư 2015 (179) tháng. Аlbums and discography are in the header (lossless) In addition to the general rules of design, all lossless-distribution must meet the following requirements: Audio codec/ Аудио кодек: Enhanced Lossless-file (s) Rip type/ Тип рипа: image +. 67 GB | 3% RAR Recovery. part 2 - Here's A Man. Telugu Movie Ab Tak Chhappan Love Dubbed In Hindi. «Aborted - Discography (Lossless)» download for free mp3 320. Artist: Taylor Swift Title: Discography Year Of Release: 2006-2015 Genre: Country, Pop Quality: FLAC (Image+. Discography. Various Artists - The Grand Budapest Hotel (Original Soundtrack) (2014) Hi-Res. 1 surround mix and and a 5LP vinyl collection. [Ipod Lossless] R. Its main claim is that while Spotify offers 320kbps music, it will offer CD quality streaming using the "Free Lossless Audio Codec" or FLAC - ALAC ( Apple Lossless Audio Codec) is used on iPhone. Victorius - Space Ninjas From Hell (2020) [FLAC] February 18, 2020. Free lossless music downloads. Torrents , movies , download , music , games , free , RARBG Torrents , filmi , download. Helloween – Discography (1985 – 2015) EAC Rip | 98xCD + 3xDVD | FLAC/WavPack Image + Cue + Log | Full Scans Included Total Size: 59. Thelonious Monk Discography [LOSSLESS] (1947-2010) greatjaspa Nuevo usuario #1 · 30/Jul/2016, 13:17. Все Тут Online > CD (Компакт диски) Lossless - МУЗЫКА БЕЗ ПОТЕРИ КАЧЕСТВА > ФОЛЬКЛОР, Народная и Этническая музыка (Lossless). Zona para música, videos, entrevistas, letras, canciones, reggaetón, electrónica, rock, pop en todos los formatos, mp3, wma, wmv. Metallica - Discography (1983 - 2013) EAC Rip | 347xCD + 8xDVD | FLAC Image + Cue + Log | Full Scans Included Total Size: 151. Kim Wilde - Discography (1981-2013) (LOSSLESS) download links are externally hosted on Extabit, Rapidshare, Rapidgator, Netload, Uploaded and Kim Wilde - Discography (1981-2013) (LOSSLESS) also available directly on Torrent Sources. Is This Love 04. Texas – Discography (1989-2017) Lossless. org - Ваш торрент-трекер! (Techno, Experimental) Cristian Vogel - Discography (incl. Barney Kessel Discography [LOSSLESS MP3] (1953-2006) 1. Full Digital Discography. Download George Harrison - Discography (1968 - 2014) - FLAC or any other file from Music category. cue) Quality: lossless Sample Rate: 44. 0 % CRC теста C497566F CRC копии C497566F Точное извлечение (достоверность 8) [CCE4FEE5]. It is available in multiple formats on that page, including FLAC. 7 GB 2020-02-26 57 7. Artist: Various Artists Title Of Album: Live at the World Cafe - Series Collection Year Of Release: 1995-2017 Label: World Cafe Records Country: International Genre: Acoustic Rock, Folk Rock, Blues Rock, Soft Rock, Alternative, Singer/Songwriter Quality: FLAC (*tracks,cue,log) Bitrate: Lossless Time: 42 Albums Full Size: 17. Tags: Dire Straits Dire Straits - Discography [Remastered] 1988-2000 lossless discography flac lossless remastered rock Previous : Ronnie James Dio (Dio) - Complete Discography [1983-2011] Next : David Guetta - Full Discography: Albums, Comilations, Singles (2002-2012). 05 – Tainted Love. Download Verified Popular Torrents Movies, TV Shows, Games, Music, Anime and Software, Bittorrent Downloading Absolutely for free at. No description given. Filter Discography By. Dan Fogelberg, the youngest of three sons, was born in Peoria, Illinois, the son of Margaret (née Irvine), a classically trained pianist, and Lawrence Peter Fogelberg, a high school band director who spent most of his career at Peoria's Woodruff High School and Pekin High School. Arch Enemy (flac) Dreamshade (flac) In Mourning (flac) Metalcore. Meat Loaf - 1 Bat out of Hell Steinman 9-52. cue) Quality : Lossless. Lossless compression is a class of data compression algorithms that allows the original data to be perfectly reconstructed from the compressed data. [TORRENT] LA BOUCHE - DISCOGRAPHY (LOSSLESS, 1994-2007) DOWNLOAD. Gospel/r&b/soul singer, born 5 May 1937 in Crawfordsville, Arkansas, died 31 May 2000 in Dallas, Texas. Title: Discography. Jackson-Discography-LOSSLESS-RiPMiCHAEL\Michael Jackson - Stranger In Moscow\01 - Michael Jackson - Stranger In Moscow (Album Version). Because he breaks down his tracks into elements that are reassembled onstage, Kalkbrenner is considered a live act, as opposed to a DJ. Soundpark has a section devoted to lossless audio. save hide report. Shop for Vinyl, CDs and more from The Cookies at the Discogs Marketplace. Formed in 1967, Genesis are among the top 30 highest-selling recording artists of all time. Emi Fujita - Discography (Lossless) - FLAC FILE. Full Digital Discography. Informatik is Da5id Din and Tyler Newman. cue, tracks), lossless. 72 MB 2004 - Songs From The Crystal Cave/02 - Don't You Cry. ALBUM / TITLE: Discography - 12 Albums, 14 CD. Various Artists - The Grand Budapest Hotel (Original Soundtrack) (2014) Hi-Res. Asia - Discography - Lossless. M Pink Floyd Lossless Discography. With Your Kiss 06. 1983 - Whiplash. Full Movies via Streaming Link for free. Year Of Release: 2010-2019 Genre: Electronic, Indie Format: Flac, Tracks & Tracks +. LL1212 - Moritzplatz EP by SBTH, released 12 May 2017 1. 01, Rock It, Lead Them To The Well EP, The Lurker EP, The Old Skool Is So Kool EP, Carbon Copy EP, From The Lab Volume 01 [SAMPLE PACK], The Ride EP, and 27 more. Audio: FLAC 24 bit / 48 kHz (Tracks) Performer: Various artists Album: The Grand Budapest Hotel (Original Soundtrack) Published: 2014 Genre: Soundtrack File Size: 676 Mb. Progressive Rock. cue) Quality : Lossless. The two new editions will be a 4CD+blu-ray set which includes a new stereo mix and a 5. 13 MB 02 - Little Girl Blue. Visceral Carnage – Perverse Collection of Mutilated Bodies (2019) [FLAC] February 15, 2020. Woh Tera Naam Tha Full Movie In Hindi Free Download Kickass. 104)/Blonker 1978 Die Zeit Steht Still side 1. tháng mười hai 2014 (643). 05:33 No comments. [Ipod Lossless] R. 09 – Sweet Dreams Are Made of This. Rock lossless. Movies - CAM/TS. txt el emprendedor de exito rafael alcaraz modelo de negocio. Filter Discography By. ARTIST: Free ALBUM / TITLE: Discography RELEASE YEAR / DATE: 1968-2018 COUNTRY: United Kingdom STYLE: Blues Rock, Hard Rock, Clas BLACK SABBATH - THE ULTIMATE COLLECTION (REMASTERED) (LOSSLESS, HI-RES 2017). As Far As The Mind Can See 10. Label: Various | Genre: Progressive Rock, Heavy Metal Uriah Heep's by-the-books progressive heavy metal made the British band one of the most popular hard rock groups of the early '70s. All music Various Artists. Download Pink Floyd - Discography. Discography. Gorillaz - Discography - 2001-2020 - lossless FLAC - COMPLETE. cue, tracks), lossless. 63 MB 2004 - Songs From The Crystal Cave/08 - Not For Sale. The Slow Crash Landing Man 08. Informatik is Da5id Din and Tyler Newman. Music DL blog download new albums in FLAC Lossless from Oboom, Rapidgator and Uploaded!. Max Discography Max Discography. We have 76 Discography-FLAC-Lossless Music torrents for you!. 2003 - Gentleman & The Far East Band Live/CD2/10. Telugu Movie Ab Tak Chhappan Love Dubbed In Hindi. Scorpions - Discography (1972 - 2015) (Lossless) ( Hard Rock) - Download for free via torrent - Metal Tracker. since then, almost all of their tracks have been rereleased on compact disc, including various compilation albums and cd singles. Their early work is characterized by complex song structures, elaborate instrumentation and the theatrical antics of founder member and vocalist Peter Gabriel, who left the band in 1975. Year Of Release: 1989-2015. Artist:Patti LaBelle Title Of Album:Discography Year Of Release:1971-2011 Label:Various Genre:Soul,Funk,Disco Quality:Flac (tracks/image+. Continue reading. Hereafter. 8 GB Albums 2010 - Geidi Primes 2010 - Halfaxa 2012 - Visions 2012 - Visions (Japanese Edition) 2012 - Visions (Resident Edition) 2012 - Visions (Rough Trade Edition) 2015 - Art Angels Singles & EPs 2011 - Darkbloom (with d'Eon) [EP] 2012. About 31 songs are getting an upgrade in bitrate that were previously only available in 128 kbps audio from soundcloud/upscales from 218. Arcade Fire – Discography (2004-2017) – FLAC Summary: Arcade Fire is a Canadian indie rock. info Hash. Info: 500 Degreez, July 23, 2002 500 Degreez is the third album by the New Orleans rapper Lil Wayne released in 2002. cue) Bitrate: Lossless Total Time:18:42:55 Total Siz. Нас вместе: 4 109 976. html Patti LaBelle - Discography (1971-2015) Lossless Fast Download Dear visitor, you went to the site as an unregistered user. Meat Loaf - 1 Bat out of Hell Steinman 9-52. Daft Punk - Random Access Memories (2013, 88883716861) Side 1: Give Life Back to Music (4:35. 12 – Blue Monday. Title Of Album: Discography Year Of Release: 1967-2014 Genre: Experimental Rock, Blues Rock, Avant-garde, Psychedelic Rock, Free Jazz, Art rock Quality: FLAC (Tracks, Image+. Artist: Burning Witches Title Of Album: Dance With The Devil [Japanese Edition] Year Of Release: 2020 Label (Catalog#): Ward Records, Inc. Games - Windows. torrent CATEGORY Music INFOHASH 78695231c6552d2f083b86f6e4c488adfac0df20 SIZE 7. 1983 - Kill'em all. Norah Jones - Discography (2001-2012) FLAC [Pop, Smooth jazz, Blues, Country, Soul, Folk] DOWNLOAD TORRENT. Grover Washington, Jr. Year Of Release: 1999-2016 Genre: Electronic, Downtempo, Chillout, Ambient, Trance Format: MP3 Bitrate: VBR-320kbps Total Size: 15 GB Albums: 1999 - Zeitgeist (Limited Edition) (2CD) 2001 - Weltreise 2001 - Zeitgeist (US) 2002 - Voyage (US) 2003 - Leben (Acht Lieder Vorab) (DE, Promo) 2004 - Leben (Limitierte Sonderauflage) (2CD) 2004 - Life (US) 2004 - Prologue (US. CONTENT: CD FLAC MP3 DISCOGRAPHY: 1974 - High Voltage 1975 - T. 04 – Take On Me. Filter Discography By. Thelonious Monk Discography [LOSSLESS] (1947-2010) greatjaspa Nuevo usuario #1 · 30/Jul/2016, 13:17. MeddleMFSLBack. Uncle Slam - Discography (Lossless) ( Thrash Metal) - Download for free via torrent - Metal Tracker. Movies - 4K UHD. With Your Kiss 06. ag The World's Largest BitTorrent System. Free lossless music downloads. * LOSSLESS FORMAT you get the songs in Wav format as well as mp3. May 6, 2020 admin. Today, 21:21 Lira. Musica En General Discute sobre qué tipo de música te gusta y opina sobre cuál es el mejor artista o mejor grupo. Movies - CAM/TS. Madonna – 13 Studio Albums + Greatest Hits Albums [LOSSLESS] Discography Februari 28, 2018 Album, Discography, Madonna. Artist: Katatonia Title Of Album: Night Is The New Day: 10th Anniversary Edition [2CD] Year Of Release: 2009 [2019] Label (Catalog#): Peaceville Records [EBVILE019]. cue), lossless. Lưu trữ Blog. Title: Cafe Del Mar Discography Year Of Release: 1994-2018 Label: Cafe Del Mar / Spain Genre: Chillout, Lounge, Ambient, Downtempo, Easy Listening Quality: FLAC (Tracks+cue,log,covers) / MP3 320 kbps Total Time: 53 lossless & 108 mp3 albums Total Size: 40,2 Gb/23,6 Gb *Update MP3, + Lossless. Emi Fujita - Discography (Lossless) - FLAC FILE. 01, Rock It, Lead Them To The Well EP, The Lurker EP, The Old Skool Is So Kool EP, Carbon Copy EP, From The Lab Volume 01 [SAMPLE PACK], The Ride EP, and 27 more. Maceo Parker Discography [LOSSLESS MP3] (1969-2012) Maceo Parker Discography [LOSSLESS MP3] (1969-2012) H o m e. Robert Plant – Discography ( 1982 - 2017 ) (FLAC) (image+ cue) (lossless) (PROAC) Albums/1982. RELEASE DATE 2020-05-04 LABEL Deepwibe Underground CATALOG DU033. Chicago - Discography - Lossless. Свежие релизы каждый день. Official Primal Scream website with music, tour dates, videos, news and more. Dan's mother was a. Category: Music > Discography. The band has released seven albums and two singles on Metropolis Records. cue / log Bitrate: lossless Total Size: 4. Steve Oliver - Discography (lossless, 1999-2018) ARTIST: Steve Oliver ALBUM TITLE: Discography RELEASE YEAR DATE: 1999-2018 COUNTRY: United States STYLE: Smooth Jazz. 7 MB Davide Ferrario - Coolprit. Kennebec – Departure (2020) [FLAC] February 15, 2020. torrent name size files age seed Complete Studio Album Discography 1969-1982 [FLAC] Posted by rustilldown78 in Music. com - торрент трекер c лучшей музыкой в lossless качестве. cue / 100% log Bitrate: lossless Total Size: 15. txt el emprendedor de exito rafael alcaraz modelo de negocio. Emiri Miyamoto Discography (2007~2017) [SACD/DSD/FLAC] {10CD & Hi-Res Audio} Được tạo bởi Blogger. Status quo-discography (Studio Albums) (1968-2013 )MP3 320 kbps MoNT part 1 File Size : 3. Download Four Tet - Discography (1997-2018) Year: 1997-2018 Genre: Leftfield, Downtempo, Experimental, Future Jazz Audio Source: WEB Audio Codec: FLAC Rip Type: Tracks & Tracks +. Formed in 1967, Genesis are among the top 30 highest-selling recording artists of all time. Steve Oliver - Discography (lossless, 1999-2018) ARTIST: Steve Oliver ALBUM TITLE: Discography RELEASE YEAR DATE: 1999-2018 COUNTRY: United States STYLE: Smooth Jazz. ARTIST: Roger Waters, David Gilmour, Rick Wright, Nick Mason, Syd Barrett PINK FLOYD (SOLO PROGECTS) - DISCOGRAPHY (LOSSLESS BON JOVI - THIS HOUSE IS NOT FOR. Zona para música, videos, entrevistas, letras, canciones, reggaetón, electrónica, rock, pop en todos los formatos, mp3, wma, wmv. Don't forget to mention that an ALAC file converted on the fly (as when listening to the file via iTunes) with no loss in sound quality, i. Allmusic: This relatively early set from Bill Frisell is a fine showcase for the utterly unique guitarist. Download Discography-Lossless Torrent at TorrentFunk. Dr Alban - Discography (1990-2019) [FLAC] [DJ] torrent download - ExtraTorrent. 72 GB: 258: 1 year: 163: 30: Little Feat - Discography (1971-2014) [FLAC] Posted by SuperX447 in Music > Lossless. Torrent info - FLAC, (image+. MeddleMFSLBack. Free lossless music downloads. Free lossless music downloads. 1974 Can't Get Enough 03 I Can't Believe You Love Me. Мессенджер PrivalSystems, Prival. If you're looking to buy lossless music in FLAC format, from indie to classical to jazz, here are our favorite sites. wav Пиковый уровень 98. 01, Rock It, Lead Them To The Well EP, The Lurker EP, The Old Skool Is So Kool EP, Carbon Copy EP, From The Lab Volume 01 [SAMPLE PACK], The Ride EP, and 27 more. 06 – You Need To Calm Down. I’m researhcing the best Music Playback. Download Four Tet - Discography (1997-2018) Year: 1997-2018 Genre: Leftfield, Downtempo, Experimental, Future Jazz Audio Source: WEB Audio Codec: FLAC Rip Type: Tracks & Tracks +. 1-9 (2009) FLAC charlene gonzales nude photo in jesabele-adds flagrante na praia de nudismo www sexolandia org. Status quo-discography (Studio Albums) (1968-2013 )MP3 320 kbps MoNT part 1 File Size : 3. For a brief spell during the mid-'80s, the heavy metal quintet Dio were one of the top U. Staind - Discography (1996-2012) Lossless -- DOWNLOAD (Mirror #1) The Pappu Can T Drink Salaa Man 2 Full Movie Download In Hindi Mp4. Ringo Starr - Discography (1970-2019) [FLAC] » audio music lossless 3 days 9804 MB 25 17 VA - 80's Gold (2020) [FLAC] » audio music lossless 2 months 1413 MB 41 1 [PendekarSubs] Strike the Blood OVA IV - 02 [BDRip 1080p FLAC]. 54 GB 2010-08-06 18 6. 1 kHz Size: 18 GB. Exact Audio Copy V0. 0 % CRC теста C497566F CRC копии C497566F Точное извлечение (достоверность 8) [CCE4FEE5]. Исполнитель: The Tangent Страна: Multi-national Альбом: Discography Жанр: Progressive Rock Год выхода: 2003 - 2017 Формат: MP3 CBR 320 Kbps Размер: 1,36 Gb (+3% на восст. Premiata Forneria Marconi (PFM) - Discography, 39 CD (Lossless) c18a082122 [NoDVD Patch][100723] ?????~? rar kritika bhabi ki chudai story in hindi VA - Maxi Disco Vol. Vansire Dream pop band from Rochester, Minnesota booking: [email protected] Top 6 sites for buying FLAC music. cue] quality. Music lossless for lovers of good sound. 72 MB 2004 - Songs From The Crystal Cave/02 - Don't You Cry. 66 Kb torrent search. Tags: Dire Straits Dire Straits - Discography [Remastered] 1988-2000 lossless discography flac lossless remastered rock Previous : Ronnie James Dio (Dio) – Complete Discography [1983-2011] Next : David Guetta – Full Discography: Albums, Comilations, Singles (2002-2012). Artist: Kimmo Porsti [The Samurai Of Prog] Title Of Album: Wayfarer Year Of Release: 2020 Label (Catalog#): Seacrest Oy [SCR-1025] Country: Finland Genre: Symphonic Progressive Rock Quality: FLAC (*image +. Books - Audiobooks. Uncompressed files like AIFF and WAV are hi-res, as are those lossless FLAC and ALAC file formats. Music DL blog download new albums in FLAC Lossless from Oboom, Rapidgator and Uploaded!. Download Wolfpakk - Discography (lossless, 2011-2020) for free. HTTP download also available at fast speeds. 2 KB 1985 - The Rodgers & Heart Songbook FLAC 01 - My Funny Valentine. Single: Gypsy/Misty Mountain. Discography [LOSSLESS] (1972-2010) -> cinurl. Delta Queen (1978) RPM #3 on Radio 5 in January 1978; Temptation (1978) RPM Doublecross (1980) RPM Albums. Full Movies via Streaming Link for. Its main claim is that while Spotify offers 320kbps music, it will offer CD quality streaming using the "Free Lossless Audio Codec" or FLAC - ALAC ( Apple Lossless Audio Codec) is used on iPhone. Leon Russell Discography Flac. 1 surround mix and and a 5LP vinyl collection. cue) Quality : Lossless. Their latest album, 'Playing With Fire', was released on 26. We have 78 Discography-FLAC-Lossless Music torrents for you!. Gospel/r&b/soul singer, born 5 May 1937 in Crawfordsville, Arkansas, died 31 May 2000 in Dallas, Texas. Meat Loaf - 1 Bat out of Hell Steinman 9-52. Home » Pink Floyd » PINK FLOYD (SOLO PROGECTS) - DISCOGRAPHY (LOSSLESS, 1970-2005) PINK FLOYD (SOLO PROGECTS) - DISCOGRAPHY (LOSSLESS, 1970-2005) By. flac Extracted successfully Conclusion: this track is CDDA with probability 100% Tempfile successfully deleted. thepiratebay10. Traffic - Discography (re-mastered) [1967-1974] ([LOSSLESS FLAC] Rock) >>> DOWNLOAD. Jackson-Discography-LOSSLESS-RiPMiCHAEL\Michael Jackson - Stranger In Moscow\02 - Michael Jackson - Stranger In Moscow (Tee's In-House Club Mix). [TORRENT] LA BOUCHE - DISCOGRAPHY (LOSSLESS, 1994-2007) DOWNLOAD. html Patti LaBelle - Discography (1971-2015) Lossless Fast Download Dear visitor, you went to the site as an unregistered user. Founded in 1989 by Robert Böbel (guitars, keyboards; Evidence One), Stephan Kämmerer (vocals), Thomas Riess (bass) und Stephan Bayerlein (drums), their debut album "The State Of Rock" finally hit the stores in 1994. Curtis Stigers - Discography (1991-2014) Lossless download links are externally hosted on Extabit, Rapidshare, Rapidgator, Netload, Uploaded and Curtis Stigers - Discography (1991-2014) Lossless also available directly on Torrent Sources. Sites with the highest combination of visitors and pageviews are indicated by setting the filter on popularity. Ringo Starr - Discography (1970-2019) [FLAC] » audio music lossless 3 days 9804 MB 25 17 VA - 80's Gold (2020) [FLAC] » audio music lossless 2 months 1413 MB 41 1 [PendekarSubs] Strike the Blood OVA IV - 02 [BDRip 1080p FLAC]. AllMusic Rating. Is This Love 04. cue) Origin: Germany Demo 2003 (2003) Turis Fratyr (2005) Sagas (2008) Band members Helge Stang − vocals Rene Berthiaume − guitar. Read More. Mariah Carey Discography LOSSLESS MP3 Post a reply. 80 90 2003 2011 FLAC tracks. Info: 500 Degreez, July 23, 2002 500 Degreez is the third album by the New Orleans rapper Lil Wayne released in 2002. Games - Windows. The genre category is: Punk-rock. COM - Without music, life would be a mistake. wav Пиковый уровень 98. Everyday Now (04:35) 4. Daft Punk - Random Access Memories (2013, 88883716861) Side 1: Give Life Back to Music (4:35. ACDC - Discography (20 albums 1975 - 2008) - Kitlope. Shipping and return policies for Lossless Music Shipping Info All items are sending registered and signed for via Royal Mail. Discography; CD-Rip; May 4, 2020. RELEASE YEAR / DATE: 1986-2013. com | Tel 123 456 7890. cue) Quality: lossless Sample Rate: 44. Download lossless music MariahCarey in popular formats: FLAC, MP3, M4A. Schiller - Discography. com find submissions from "example. June 14, 2018. PINKFLOYDfulldiscographyFLAC-losslessZoneTeam Meddle Covers. All That's Left 05. Shop for Vinyl, CDs and more from Ernie K-Doe at the Discogs Marketplace. 192-320kbps 檔案大小 : 2. Forlorn - Discography [MP3/Lossless] | Download this! Genre: Melodic Black/Viking Metal Origin: Norway Quality: mp3, CBR 320 kbps / APE/FLAC. [REQUEST] Marietta Discography [FLAC or anything lossless] thanks. por pomposos el Mir Mayo 28, 2014 1:59 pm. AC DC Discography 1974 2010 FLAC CUE Lossless torrent download, InfoHash 597F1024B75E5EAC7D388264C64F91EDAE5D722E. Discography: Singles. Led Zeppelin IV. Нас вместе: 4 109 976. 27 GB | 파일 수 : 435 | 시간 : 2015-08-09 Albums/1969 - With A Little Help From My Friends/Joe Cocker-With A Little Help From My Friends. Added: breaker65. Download Megadeth - Discography (1985 - 2016) EAC Rip | 265xCD + 5xDVD | FLAC Tracks & Image + Cue + Log | Full Scans Included Total Size: 110. Category: Music > Discography. 1 thru 6 - BWV 812 & 813, BWV 814 - 817 - Wolfgang Rubsam - 2 CD-. Free lossless music downloads. Explore releases from One Way at Discogs. Download Barry White - Lossless Discography torrent for free, Downloads via Magnet Link or FREE Movies online to Watch in LimeTorrents. no comments yet. June 14, 2018. Of Montreal – "Ur Fun" (2020) [FLAC] February 15, 2020. Maynard Ferguson Discography [LOSSLESS MP3] (1950-2008) is a software program for file conversion. Soundpark has a section devoted to lossless audio. AllMusic Rating. Frontline from Nürnberg, Germany belong to the pioneers of the German hard rock scene. Now, you can argue that the AAC 256Kbps format currently used by iTunes is very good, and I’ll agree with you. 1999 Pink Floyd - A Tree Full Of. Max Discography Max Discography. txt el emprendedor de exito rafael alcaraz modelo de negocio. 0 comments. Artist: Kimmo Porsti [The Samurai Of Prog] Title Of Album: Wayfarer Year Of Release: 2020 Label (Catalog#): Seacrest Oy [SCR-1025] Country: Finland Genre: Symphonic Progressive Rock Quality: FLAC (*image +. 3 GB 2013-09-07 57 7. Moritzplatz (Mars Mix) 2. 54 GB 2010-08-06 18 6. (Psychedelic Rock) Jefferson Airplane / Starship Complete Discography (lossless APE/FLAC) Страницы : 1 , 2 След. The 1975 - Discography (2013-2020) [FLAC] 3. com you can download lossless music in popular formats FLAC, APE, ALAC, MP3, M4A. com 2001: Midori no Mori de Nemuru Tori Meimu Yoimoribito NOTTE Sacrifice D. [REQUEST] Marietta Discography [FLAC or anything lossless] thanks. Shipping and return policies for Lossless Music Shipping Info All items are sending registered and signed for via Royal Mail. America - Discography (1971-2011) [FLAC] » audio music lossless 7 years 5215 MB 7 6 Metallica - Discography 1983-2017 [FLAC] » audio music lossless 1 year 126 GB 3 10 Ramones - Discography 1976-2006 [FLAC] » audio music lossless 6 years 12 GB 8 4 Bryan Ferry - Discography [1973-2018] [FLAC] » audio music lossless 2 months 18 GB 4 8. Download lossless music MariahCarey in popular formats: FLAC, MP3, M4A. ALBUM / TITLE: Discography - 12 Albums, 14 CD. M Pink Floyd Lossless Discography. Free lossless music downloads. 95 GB 1978 - For You 1979 - Prince 1980 - Dirty Mind 1981 - Controversy 1982 - 1999 1984 - Purple Rain 1985 - Around The World In A Day 1986 - Parade 1987 - Sign "☮" the Times 1988 - Lovesexy 1989 - Batman 1990 - Graffiti Bridge 1991 - Diamonds. 1999 Pink Floyd - A Tree Full Of. 1-10 (Unofficial Release, The Collectors Limited Edition) - 2003, FLAC (image+. cue, tracks), lossless. Emi Fujita (藤田恵美 Fujita Emi?, born May 15, 1963) is a Japanese singer. The two new editions will be a 4CD+blu-ray set which includes a new stereo mix and a 5. Michael Franks Discography [LOSSLESS] (1973-2011) >>> DOWNLOAD (Mirror #1). cue,log,scans) Bitrate: Lossless Time: 73:00 Full Size: 599Mb. Password stores only the client itself! Encryption, recommended for military. Uncle Slam - Discography (Lossless) ( Thrash Metal) - Download for free via torrent - Metal Tracker. Gorillaz Discography Electronic 2001 2020 FLAC Lossless torrent download, InfoHash C877C580836F14E121D44000A8AD5E3BF99AD906. wav Пиковый уровень 98. Afraid of Sunlight was the band's eighth studio album and their final release on EMI. Sarah Vaughan Discography [LOSSLESS] (1946-2009) GM Command Ran Online of ADMIN Amosroy. #N#Verikalpa - Discography (2018-2020) Finnish Folk Metal 320 k. Telugu Movie Ab Tak Chhappan Love Dubbed In Hindi. Allmusic: This relatively early set from Bill Frisell is a fine showcase for the utterly unique guitarist. Scott McKenzie - San / 2017, CD Flac, Lossless, Various Artists, KaRaMusic. I just purchased my first pair of "audiophile" headphones, and this will be my first time listening to Brand New with means better than Apple EarPods and through a vehicle stereo system. Synthpop, Futurepop, New Wave (lossless) (Synthpop) Echo Image - Discography (Web) - 1998-2016 (Pitch Black Drive Productions) , FLAC (tracks), lossless Главная » Industrial, Noise, EBM, Dark Electro, Aggrotech, Synthpop, New Wave » Synthpop, Futurepop, New Wave (lossless). Sometimes They Stay, Sometimes They Go 07. 15 MB Album/1977 - Bat Out Of Hell/02. cue / log Bitrate: lossless Total Size: 4. 02 – Staying Alive. Green Day - Father of All Motherfuckers (2020. Looking for the Lossless Discography. Torrent verified by Mafketel. com | Tel 123 456 7890. tháng mười hai 2014 (643). isidroco created ticket #477. tháng mười hai 2014 (643) tháng một 2015 (549) tháng hai 2015 (254) tháng ba 2015 (349) tháng tư 2015 (179) tháng. Title: Discography. cue) Origin: Germany Demo 2003 (2003) Turis Fratyr (2005) Sagas (2008) Band members Helge Stang − vocals Rene Berthiaume − guitar. Dimmu Borgir Discography (1st press), FLAC (image+. Download Bee Gees - Discography (1967-2014) Year: 1967-2014 Genre: Pop Rock Audio Source: CD Audio Codec: FLAC Rip Type: image, cue, log Bitrate: Lossless Audio Channels: 2. This is similar to how Zip works, except with FLAC you will get much better compression because it is designed specifically for audio, and you can play back compressed FLAC files in your. Traffic - Discography (re-mastered) [1967-1974] ([LOSSLESS FLAC] Rock) >>> DOWNLOAD. Raised in Wyomissing, Pennsylvania, she moved to Nashville, Tennessee, at the age of 14 to pursue a career in country music. (Rap/Hip-Hop) Ruff Ryders - Official Discography, ALAC (tracks), lossless » Музыка lossless (ALAC) :: RuTracker. Movies - 4K UHD. Continue reading. Grover Washington, Jr. 360) The Game of Love (5:23. MUSICLOSSLESS. Full Movies via Streaming Link for free. PINKFLOYDfulldiscographyFLAC-losslessZoneTeam Meddle Covers. 11 – Eternal Flame. Their early work is characterized by complex song structures, elaborate instrumentation and the theatrical antics of founder member and vocalist Peter Gabriel, who left the band in 1975. Max Discography Max Discography. 72 MB Throbbing Gristle ( Lossless Discography ) [ FLAC ] File Size : 8. - (Bison) - Discography (2008 - 2017) (Lossless) ( Stoner Metal) - Скачать бесплатно через торрент - Метал Трекер. Wax Tailor - By Any Beats Necessary (2016) [FLAC] February 18, 2020. Barry White - Lossless Discography 1976 Is This Whatcha Wont 02 Your Love - So Good I Can Taste It. Frankie goes to hollywood were a british band who released two studio albums and seven singles before disbanding in 1987. He started his career in the mid-1950s as a member of gospel group The Highway QC's but left that group in 1957 to replace Sam Cooke as lead vocalist for The Soul Stirrers. infamously subjected to a brief torrent of four-lettered abuse during a fan 'phone-in',. Artist:Thomas Dolby Title Of Album:Studio Discography Year Of Release:1982-2011 Genre:New Wave, Synth-Pop Quality:mp3 / Flac (image+. com - торрент трекер c лучшей музыкой в lossless качестве. Scorpions - Discography (1972 - 2015) (Lossless) ( Hard Rock) - Download for free via torrent - Metal Tracker. isidroco created ticket #477. Rammstein - Discography. Read More. Format: FLAC (image +. The Slow Crash Landing Man 08. Havok - V Year Of Release: 2020 Genre: Metal Format: Flac, Tracks Bitrate: lossless Sample Rate: 16bit/44. Matt Bianco Discography [LOSSLESS] (1984-2010) >>> DOWNLOAD (Mirror #1) matt bianco discography flac 36f9ca4298 Matt Bianco is a UK band that was formed in 1983. (sometimes stylized in lower-case letters, originally called Social Justice) is an American rap metal band from Los Angeles, California. Search/browse tools. stone machine - discography (lossless, 2012-2014) gary glitter - glitter / touch me (lossless, 1972/ the velvet underground: with us from the past. Jean Carn – Discography (1976-2005) Mp3 + Lossless. ALBUM / TITLE: Discography - 12 Albums, 14 CD. 1994 - get away 19:09 ape. 1 kHz (Tracks) Artist: The Gap Band Title: Gap Band 8 + bonus tracks / Straight From The Heart Released: 2019 Style: Funk, Soul, Disco, Boogie, Electro RAR Size: 759 Mb. Browse and download Music absolutely for free. Format: FLAC (image +. ag The World's Largest BitTorrent System. Shop for Vinyl, CDs and more from One Way at the Discogs Marketplace. 000) Giorgio by Moroder (9:06. Artist: The Pillows Title Of Album: Discography Year Of Release: 1990-2017 Genre: JPop, JRock, Alternative Rock, Soundtracks Quality: MP3 192-320 kbps/FLAC (Tracks) Total Size: 4,96 Gb/9,35 Gb. 04:22 No comments. [PEDIDO] CC Catch Discography [Torrent] Albums, Compilations & Singles 1986 - CATCH THE CATCH 1986 - WELCOME TO THE HEARTBREAK HOTEL 1987 - LIKE A HURRICANE 1988 Dani König ‎- Disco 3000 (CDM)(1998). Browse All categories - Anime - Apps - Books - Documentaries - Games - Movies - Music - Other - TV - XXX. Size: 104 MB / 277 MB. Drudkh - Discography (2003-2012) » audio music lossless 3 days 2784 MB 0 1 Phil Collins - Discography (1981-2010) [FLAC] » audio music lossless 3 days 7615 MB 58 44 Cecile McLorin Salvant Discography » audio music mp3 3 days 1927 MB 1 0 Chris Botti - Discography (1995-2012) 96kbps opus » audio 3 days 508 MB 4 0 Bond - Discography (2000-2011. He is most known for his single "Sky and Sand,". 3 GB in 97 files ADDED Uploaded on 08. zip archive downloading links from mega. Jean Carn – Discography (1976-2005) Mp3 + Lossless. Maynard Ferguson Discography [LOSSLESS MP3] (1950-2008) is a software program for file conversion. Sarah Vaughan - The Divine One. Ringo Starr - Discography (1970-2019) [FLAC] » audio music lossless 3 days 9804 MB 25 17 VA - 80's Gold (2020) [FLAC] » audio music lossless 2 months 1413 MB 41 1 [PendekarSubs] Strike the Blood OVA IV - 02 [BDRip 1080p FLAC]. Sukebei [18+]: @sukebeinyaasi Bot: @nyaasi_bot Chat: @nyaasi_chat Contact: @ejnshtein Updates: #update #trusted #remake If something doesn't work, please report to me(@ejnshtein) or in a chat. Includes unlimited streaming via the free Bandcamp app, plus high-quality downloads of Dope On Plastic Vol. For Lossless - quality. Jackson-Discography-LOSSLESS-RiPMiCHAEL\Michael Jackson - Stranger In Moscow\01 - Michael Jackson - Stranger In Moscow (Album Version). Books - Audiobooks. Chris Spheeris - Discography, 16 Albums (Lossless) -> DOWNLOAD (Mirror #1) 500 Terry Francois Street, San Francisco, CA 94158 [email protected] 6 GB | 3% RAR Recovery. Various Artists - The Grand Budapest Hotel (Original Soundtrack) (2014) Hi-Res. 1 thru 6 - BWV 812 & 813, BWV 814 - 817 - Wolfgang Rubsam - 2 CD-. Discography; 38 Releases 5 Albums 33 Singles & EPs 1364 Appearances 42 Albums 20. Music DL blog download new albums in FLAC Lossless from Oboom, Rapidgator and Uploaded!. Top Lossless - Music torrents 25 from 10000. Tracklist: 01 - Can't Do Without You 02 - Silver 03 - All I Ever Need 04 - Our Love 05 - Dive 06 - Second Chance 07 - Julia Brightly 08 - Mars 09 - Back Home. Explore releases from The Monotones at Discogs. Artist: Amanda Lear Title Of Album: Discography Year Of Release: 1977-2012 Genre: Pop, Disco Quality: APE, FLAC (Image+. org - Ваш торрент-трекер! (Techno, Experimental) Cristian Vogel - Discography (incl. Download Dvdrip Hd Tezaab The Acid Of Love. Правила оформления. Die Hit-Giganten Best Of Flower Power (2017, CD Flac) - Release Date: 2017 Genre: Pop Audio Codec: Flac Rip Type: tracks Bitrate: lossless Sample Rate: 16 Bit/44. Artist:Thomas Dolby Title Of Album:Studio Discography Year Of Release:1982-2011 Genre:New Wave, Synth-Pop Quality:mp3 / Flac (image+. 1983 - Kill'em all. Progressive Rock. voldrox I am a simple guy, do what interests me and sometimes get very. *OUTROS Get an album with my best outros. Los Lonely Boys are a Mexican American power trio from San Angelo, Texas. Everyday Now (04:35) 4. Pink Floyd played to both sides of the. save hide report. Meat Loaf - Discography (lossless) Album 1977 - Bat Out Of Hell 01. 1 kHz Size: 28. John Zorn Discography Rar. 1 kHz Size: 28. 2 GB 2006 - The Only Constant 2007 - The World is Getting Smaller 2008 - Bring Us The Bright 2010 - Tell Your Friends 2012 - groundUP 2013 - Amkeni [Bukuru Celestin & Snarky Puppy] 2013 - Family Dinner Volume 1 2014 - We Like It Here 2015 - Live in Concert at La Cigale. 13:24 No comments. Category: Discography. Includes unlimited streaming via the free Bandcamp app, plus high-quality downloads of Dope On Plastic Vol. Feelgood - Discography (1976-2006) Lossless or any other file from Music category. Audio: FLAC 24 bit / 48 kHz (Tracks) Performer: Various artists Album: The Grand Budapest Hotel (Original Soundtrack) Published: 2014 Genre: Soundtrack File Size: 676 Mb. Artist: M8l8th Album: Discography Year: 2003-2010 Genre: NSBM (NS Black Metal) Country: Russland (Tver') Format: [email protected] kbps Scans: Yes lyrics: Yes + Video Wallpapers Interview + Los. Anne Murray - Discography - 1968-2008 MP3 FLAC album. We share Punk-rock. Length: 00:50:40. cue) Quality : Lossless. TOOL - Fear Inoculum (Deluxe) (2019) [FLAC] 465 MB Arctic Monkeys Tranquility Base Hotel and Casino [2018] FLAC CD 265 MB Slipknot - We Are Not Your Kind (2019) [FLAC CD] 429 MB. Benny And Babloo Movie Download In Hindi Dubbed Free. / No Mercy (Target Exclusive) Used drive : Optiarc DVD RW AD-7203A Adapter: 0 ID: 0. 1 kHz / CD Flac, Discography, Lossless, WEB Flac, KaRaMusic. isidroco created ticket #477. Disco Discography Flac & Ape Hip-Hop/Rap Music Pop Rock. Gentleman And The Far East Band - Leave Us Alone. Afraid of Sunlight was the band's eighth studio album and their final release on EMI. Title Of Album: Discography Year Of Release: 1967-2014 Genre: Experimental Rock, Blues Rock, Avant-garde, Psychedelic Rock, Free Jazz, Art rock Quality: FLAC (Tracks, Image+. House Of The Rising Sun (1977) RPM Forbidden Fruit (1978) RPM Heads Or Tails (1980) RPM Forbidden Fruit and Other Delights (1997) Gallo re-issue of 'Forbidden Fruit' and 'Heads Or Tails' on a single CD. 04 I Wanna Lay Down with You Baby. 2 GB | 3% RAR Recovery. 05-05-2020 11:47 PM by apf. Chet Baker Discography [LOSSLESS] (1953-2010) -> DOWNLOAD (Mirror #1) THE LOOK STUDIO. Download Discography-FLAC-Lossless Torrent at TorrentFunk. , the band does not rank quite so high, but it is still among the Top Ten best. Frankie goes to hollywood were a british band who released two studio albums and seven singles before disbanding in 1987. Bob James Discography LOSSLESS 19622011. Various Artists - The Grand Budapest Hotel (Original Soundtrack) (2014) Hi-Res. Books - Educational. Steve Oliver - Discography (lossless, 1999-2018) ARTIST: Steve Oliver ALBUM TITLE: Discography RELEASE YEAR DATE: 1999-2018 COUNTRY: United States STYLE: Smooth Jazz. Staind - Discography (1996-2012) Lossless -- DOWNLOAD (Mirror #1) The Pappu Can T Drink Salaa Man 2 Full Movie Download In Hindi Mp4. Continue reading. [torrent] la bouche - discography (lossless, 1994-2007) download. ) Залито: yadi. RELEASE DATE 2020-04-30 LABEL Armada Electronic Elements CATALOG AREE124 Shadow Child - Jupiter (Extended Mix). M Pink Floyd Lossless Discography. Game Soundtracks - High Quality. 0 % CRC теста C497566F CRC копии C497566F Точное извлечение (достоверность 8) [CCE4FEE5]. stone machine - discography (lossless, 2012-2014) gary glitter - glitter / touch me (lossless, 1972/ the velvet underground: with us from the past. All That's Left 05. Dan Fogelberg, the youngest of three sons, was born in Peoria, Illinois, the son of Margaret (née Irvine), a classically trained pianist, and Lawrence Peter Fogelberg, a high school band director who spent most of his career at Peoria's Woodruff High School and Pekin High School. Frankie goes to hollywood were a british band who released two studio albums and seven singles before disbanding in 1987. If you want to download the entire concert in FLAC, the easiest way is to use the "Lossless zip" link located on the left side of the page where it says, "Play / Download. TESTAMENT -- Complette Discography (1987 - 2012) 15CD -- USA (Oakland, California) Metal, Thrash (320Kpbs) pawlyn.